<?xml version="1.0" standalone="no"?>
<!DOCTYPE svg PUBLIC "-//W3C//DTD SVG 1.1//EN" "http://www.w3.org/Graphics/SVG/1.1/DTD/svg11.dtd" >
<svg xmlns="http://www.w3.org/2000/svg">
<metadata></metadata>
<defs>
<font id="sgfontregular" horiz-adv-x="2048" vert-adv-y="2048" >
<font-face units-per-em="2048" ascent="1638" descent="-410" />
<missing-glyph horiz-adv-x="500" />
<glyph horiz-adv-x="0" vert-adv-y="0" />
<glyph unicode="&#xd;" />
<glyph unicode="?" vert-adv-y="180" d="M631.5 1436.5q-0.5 -10.5 6 -23.5t14 -23.5t20.5 -27.5q51 -67 75 -55q7 3 16 20.5t20 40.5t39 58t67 67q17 14 34.5 26t32 21.5t31.5 17.5t29 14t27.5 11.5t24.5 8.5t23 6.5t19.5 4.5t16.5 3.5t13 2.5q37 8 56 -4t15 -41q-6 -38 -8 -52.5t-14 -61.5t-27.5 -83.5 t-45 -94.5t-69.5 -118q-62 -94 -141 -197.5t-113 -170.5q-31 -9 -36.5 -59.5t33 -93.5t116.5 -33q34 4 77 11t65 10.5t50.5 5.5t45.5 -2t36.5 -14t36.5 -27q30 -30 33 11q4 52 -27 123q-30 70 -67 75q-14 2 -40 4q-56 5 -62 16t13 36q145 189 251 421q131 288 89 416 q-30 89 -145 80q-166 -13 -284 -54t-191.5 -100t-147.5 -156q-7 -9 -7.5 -19.5zM808 320q8 -74 49.5 -114t106.5 -39q65 2 139 43q36 23 50.5 62.5t12 77.5t-14.5 91q-12 42 -73 55t-124 1t-90 -35q-38 -31 -49.5 -62.5t-6.5 -79.5z" />
<glyph unicode="B" vert-adv-y="180" d="M220 1016q0 -9 2.5 -27t3.5 -24q4 -43 26 -59q19 -14 73 -13h15q25 1 156 16q-11 -66 -11 -129q0 -68 13 -132q13 -46 55 -74t105 -37q47 -7 99 -7q17 0 35 1q71 3 153 17q14 -91 36 -193q9 -40 14.5 -63.5t13 -34.5t8.5 -14t11.5 -2t11.5 1q2 0 24.5 -3.5t36.5 -3.5 t29 11t18 34v6q0 43 -30 302q212 61 288 124q74 61 110 120.5t44 131.5q46 -1 133 -5q25 -4 44.5 -5t34 -0.5t24.5 6.5t17 9.5t10 14.5t5 16q1 3 1 9q-1 5 -1 11q-2 16 -2 20.5t-3.5 22.5t-4.5 21q-3 15 -7.5 26t-14 18t-16 11.5t-22 6.5t-21.5 2.5t-26 1t-25 0.5 q-63 1 -136 3q-15 97 -47 160.5t-107 140.5q-26 27 -54.5 36.5t-50.5 2.5t-39 -25q-36 50 -130 50h-11q23 196 37 241q5 18 -28 33.5t-73 17.5q-8 0 -21.5 1.5t-19.5 1.5q-27 0 -42 -26.5t-21 -106.5q-3 -40 -18 -202q-115 -43 -161 -89q-123 -107 -198 -264 q-143 -14 -256 -29q-24 1 -41.5 -2t-27 -12t-15.5 -18q-6 -8 -6 -24v-14v-10zM602 839q4 40 14 83q159 15 286 25q6 -125 21 -241q-43 -7 -91 -7h-21q-59 2 -107 12t-78 43q-25 27 -25 68q0 8 1 17zM714 1138q48 65 115 120q40 32 81 49q-6 -77 -9 -159q-122 -6 -187 -10z M1085 1154q3 91 9 175q77 -12 154 -56q21 -8 28 24q47 -55 68 -142h-71q-78 0 -188 -1zM1087 958q114 5 266 7q-31 -137 -252 -218q-10 112 -14 211z" />
<glyph unicode="C" vert-adv-y="180" d="M228 863q-5 29 -5 64q-1 49 9 111q16 104 49 207q21 67 54 132.5t57.5 103t57 82t37.5 52.5q17 26 68 26q13 0 28 -2q70 -9 97 -40q13 -17 4 -34q-12 -23 -56.5 -79.5t-94.5 -127t-80 -129.5q-56 -113 -72 -199q-6 -31 -6 -56q0 -44 18 -69q6 -8 18.5 -13.5t36.5 -7.5 t36.5 -3t45.5 0t36 1q31 0 252 10q164 7 293 7q45 -1 85 -1q158 -4 188 -29q5 -5 10.5 -39t12.5 -39t28.5 13.5t26.5 18.5q-7 7 -27 25t-42 39t-46 46q-63 67 -162 242q-16 29 -16 55q0 31 22 58q28 37 68 37h6q43 -2 60 -47q64 -70 122.5 -122.5t130 -107.5t92.5 -73 q28 -24 58.5 -48t41.5 -33.5t24.5 -22.5t27.5 -30q2 -10 2 -34v-18q-1 -39 -3 -51q-2 -19 -94.5 -71t-218.5 -116t-171 -94q-30 -20 -79.5 -55.5t-75 -52.5t-62 -33.5t-70.5 -20.5q-6 -1 -11 -1q-48 0 -48 62q0 64 44 141q29 50 56 62q35 15 99.5 65t89.5 59q-28 1 -94 1 q-110 0 -327 -3q-173 -2 -288 -2.5t-171 2.5q-83 4 -120.5 49t-51.5 133z" />
<glyph unicode="E" vert-adv-y="180" d="M236 1274v-16q0 -15 1 -27q2 -18 10 -32q9 -201 9 -438v-87q0 -14 -4 -118q-3 -72 -4 -131q0 -26 1 -50q1 -61 23 -93q22 -31 54 -32h1q33 0 73 16q98 6 225 6q76 0 163 -2q65 -2 218.5 -14.5t265.5 -14.5h11q21 0 37 6q20 8 25 26q2 26 2 61q0 44 -3 102q-4 75 -3 120 v32q7 113 15 148q1 4 1 7q0 23 -31 39q-27 14 -56 14q-8 0 -18 -2q-40 -6 -45 -33q8 -38 15 -152q2 -33 2 -73q0 -60 -4 -137q-108 6 -182 6q-10 0 -20 -1q-78 -1 -205 -5t-190 -4q-139 4 -224 9q-2 36 -6.5 124.5t-6.5 124.5q-5 159 -5 288q0 153 7 264q36 1 74 1 q114 0 250 -9q5 -1 9 -1q31 0 51 33q16 27 17 56q-1 11 -3 21q-8 40 -45 42h-25q-26 0 -56 -1q-46 -2 -100 -5.5t-77 -4.5h-15q-34 0 -82 7q-58 9 -79 9q-31 -1 -51 -11t-20 -32v-36z" />
<glyph unicode="F" vert-adv-y="180" d="M237 1233q-16 -2 -16 -14t18 -34q37 -46 90 -71q20 -9 35 -10l14 -21q9 -6 54.5 -34.5t57.5 -36.5l48 -32t51.5 -36.5t41 -33t42.5 -39t32 -37.5q-35 -125 -127 -359q-20 -10 -20 -36q0 -18 10 -43q-33 -29 -48 -85q-5 -18 -5 -31q0 -24 18 -26q11 -1 27 7q19 18 57 48.5 t47 38.5t43 37.5t49.5 42.5t47 39t52.5 42.5t49.5 36.5t53.5 36q66 -59 208 -156q9 -6 131.5 -92.5t189.5 -123.5q27 0 42.5 19t18 45t-2 51t-13.5 37q-97 161 -183 457q-6 2 -9 2q151 109 198 149q141 112 228 148q22 -1 38 22.5t18 51.5q2 8 1 16q0 6 -1 14q-3 14 -17 15 q-56 -3 -133 -2q-171 0 -448 13q-14 47 -43.5 135t-40.5 126q-13 17 -32 94t-43 141t-52 65q-29 -3 -41 -55q-6 -24 -6 -43q0 -22 8 -37q-37 -86 -86 -249t-61 -198q-220 -8 -351 -8q-71 0 -115 2q-69 4 -125 12zM519 1110q50 0 154.5 -6t194.5 -7q32 8 32 53v5 q12 51 40.5 143t33.5 111q20 72 54 133q82 -225 82 -355q0 -18 -2 -34v-5q0 -28 38 -42q22 -8 42 -8q19 0 36 7q93 16 291 16q42 0 88 -1q-167 -113 -266 -159q-22 -11 -43 -24t-43 -32t-33.5 -38t-9.5 -41t24 -42q12 8 17 12q-5 -25 9 -54q30 -69 72 -191t54 -153 q-37 16 -66.5 34.5t-68 48.5t-62.5 46q-80 60 -182 177q-19 29 -39 18q-33 7 -45 -3.5t-6 -38.5q-22 -20 -63.5 -58.5t-49.5 -45.5q-52 -49 -91 -79q13 60 41 147t35 140q35 10 58.5 37t9.5 51q-55 49 -128 96.5t-105 72.5q-74 52 -103 69z" />
<glyph unicode="H" vert-adv-y="180" d="M263 1101q8 -15 18 -41t15.5 -37t20.5 -21t36.5 -4t59 26t92.5 58q161 112 263 224.5t189 260.5q9 15 21 37q14 26 20 26q8 0 34 -41q2 -3 7 -10q29 -46 52 -79q46 -67 83 -117t102 -126t122 -125q56 -49 128 -85q68 -34 129 -34h7q46 1 75 7t38.5 14.5t9.5 19t-10.5 21 t-24.5 20t-29.5 16.5t-27.5 11q-12 7 -43.5 23.5t-39 21t-30.5 18t-32.5 22t-31 24.5t-40 34.5t-44.5 44t-59 59.5q-98 100 -180 198.5t-114 131.5q-6 6 -15.5 16t-14.5 15l-12.5 12.5t-12.5 11t-11 7.5t-11.5 5t-10.5 1q-24 -1 -56.5 -36.5t-95.5 -126.5 q-107 -153 -258.5 -281.5t-317.5 -221.5zM450 958q17 -105 21 -193q2 -39 2 -72q0 -40 -3 -70q-4 -54 -10 -138q-5 -71 -5 -139v-24q3 -105 44 -133q11 -7 21 -7l33 17q12 10 31 16.5t36.5 9t42.5 3t39.5 0t37 -2t26.5 -1.5q85 -4 189 -4h27q9 0 18 1q110 0 215 -6 q114 -6 305 -28h11q19 -1 35 5q20 8 23 25q1 13 1 32q0 63 -10 199q-11 154 -11 209v15q9 182 21 238q1 3 1 6q1 14 -11 28q-14 18 -40 17q-29 -3 -49 -19.5t-29 -39t-13 -54.5t-3.5 -57t1.5 -55.5t1 -41.5v-17q0 -125 14 -237q14 -118 13 -135q-34 5 -79.5 11.5t-63.5 9 t-44 5t-52 3.5l-12 87q-11 80 -12 146q0 5 1 11q1 61 9 135.5t12 96.5l-181 -5q-23 -1 -47 -1h-23q-35 0 -75 1.5t-42 1.5q-11 -42 -15 -109q-3 -49 -3 -90v-30q2 -52 5 -129.5t3 -102.5q-62 10 -126 11q-73 0 -149 -14q10 191 16 285t10.5 144.5t7.5 87.5q1 10 1 18 q0 34 -10 59q-12 31 -31 43t-32.5 16t-24.5 4q-21 0 -45 -10.5t-23 -31.5z" />
<glyph unicode="L" vert-adv-y="180" d="M236 1698v-16q0 -15 1 -27q2 -18 10 -32q15 -153 16 -338v-46q0 -159 -6 -287q-7 -148 -13 -340q-4 -128 -4 -234q0 -53 1 -100q1 -62 23 -94q22 -31 54 -31l1 1q33 0 73 15q152 9 332 9q16 0 32 1q160 0 288 -5q140 -5 335 -11.5t322 -8.5q27 -2 48 6t25 27q1 15 1 52 q-1 105 -9 391q-10 328 -9 412v21q0 2 5 313t12 340l-75 51q-13 1 -43 1q-138 0 -629 -12q-27 -1 -60 -1q-81 0 -201 4q-166 5 -305.5 11.5t-153.5 6.5q-31 -1 -51 -11t-20 -32v-36zM388 1629q61 -8 343 -8q117 0 273 1q530 5 617 15l5 -591v-21q0 -137 12 -403 q12 -286 11 -310q-84 4 -207 4q-170 0 -414 -8q-214 -6 -376 -5q-155 0 -261 5q6 109 6 268q0 172 -7 403q-7 240 -7 411q0 144 5 239z" />
<glyph unicode="M" vert-adv-y="180" d="M227 1427q1 -11 7 -23.5t12.5 -22t19 -23.5t18.5 -20.5t21.5 -21.5t18.5 -18q39 -35 149 -146t200 -187.5t182 -130.5q2 -1 34 -18.5t49.5 -24t49.5 -15t62 -4.5t59 20q310 169 535 431q2 -24 6 -172q4 -121 3 -186v-26q-1 -19 -2.5 -102t-3.5 -152.5t-4 -101.5h-12 q-28 0 -83 3q-68 4 -191 8q-82 3 -172 2h-93q-145 -2 -369 -16q-155 -9 -248 -9q-41 0 -71 2q-1 35 0 83v144q2 150 8 228q1 5 1 9q0 33 -33 53q-26 16 -55 16q-11 0 -23 -3q-40 -9 -41 -46q-1 -14 -1 -37q0 -98 11 -352q1 -11 1 -23q0 -28 -4 -56q-5 -39 -5 -60 q-2 -14 50 -61q51 -46 75 -46h1q69 3 288 20.5t394 22.5q49 1 100 1q89 0 186 -4q152 -7 256 -15.5t117 -8.5t27 -3.5t20.5 -7t13 -4.5t6 5t-1.5 22q-17 300 -17 532q0 63 1 122q2 69 13 213.5t14 222.5q3 5 9 14.5t9 14.5q-4 17 -16 32v14q0 79 -32 87q-27 2 -86 2 q-75 0 -201 -3q-162 -4 -231 -4q-28 0 -41 1q-114 1 -324 7.5t-284 7.5q-27 0 -43 -35q-12 -26 -13 -53q0 -9 2 -19q6 -38 34 -43q30 7 316 10.5t290 3.5q48 2 227.5 2t226.5 -3q-1 -6 -1 -19q-136 -190 -263 -320.5t-289 -228.5q-26 -22 -47.5 -18t-84.5 43 q-246 156 -535 540q-1 4 1 20q-8 24 -34.5 34t-57.5 4t-59.5 -19.5t-44.5 -37.5q-10 -16 -10 -31q0 -8 3 -16z" />
<glyph unicode="N" vert-adv-y="180" d="M242 714q39 -45 117 -55q16 -2 32 -2q61 0 110 34q110 74 190.5 115.5t233.5 100.5q237 91 563 102q-3 -3 -52.5 -40t-80.5 -70q-11 -11 -49.5 -47.5t-66.5 -71.5t-57 -87q-15 -27 -15 -54q0 -34 24 -68q33 -46 80 -52q4 -1 9 -1q38 0 53 41q63 69 121.5 121t126.5 104.5 t92 72.5q28 24 57 47.5t40.5 32.5t25 22t26.5 30q2 9 2 33v18q-1 38 -3 50q-4 31 -197 125.5t-302 122.5q-27 9 -77 26t-71.5 24t-56.5 15t-68 12q-5 1 -10 1q-43 0 -46 -49q-2 -56 42 -119q42 -60 87 -61q89 -13 168 -43q-237 -10 -551 -123q-212 -77 -297 -114t-195 -107 q-24 -21 -24 -44q0 -20 19 -42z" />
<glyph unicode="P" vert-adv-y="180" d="M224 1040q1 38 3 50q4 31 197 125.5t302 122.5q27 9 77 26t71.5 24t56.5 15t68 12q5 1 10 1q43 0 46 -49q2 -56 -42 -119q-42 -60 -87 -61q-89 -13 -168 -43q237 -10 551 -123q212 -77 297 -114t195 -107q24 -21 24 -44q0 -20 -19 -42q-39 -45 -117 -55q-16 -2 -32 -2 q-61 0 -110 34q-110 74 -190.5 115.5t-233.5 100.5q-237 91 -563 102q3 -3 52.5 -40t80.5 -70q11 -11 49.5 -47.5t66.5 -71.5t57 -87q15 -27 15 -54q0 -34 -24 -68q-33 -46 -80 -52q-4 -1 -9 -1q-38 0 -53 41q-63 69 -121.5 121t-126.5 104.5t-92 72.5q-28 24 -57 47.5 t-40.5 32.5t-25 22t-26.5 30q-2 9 -2 33v18z" />
<glyph unicode="R" vert-adv-y="180" d="M229 819q28 2 55 2q239 0 363 -169q29 -39 48 -76t30.5 -85.5t16 -69t11 -85.5t7.5 -76q5 -30 31 -46q23 -14 52 -14h7q34 2 65.5 13.5t51 36.5t14.5 55q-5 27 -12.5 75t-11 66t-13 53.5t-21 60.5t-32 62t-49.5 81q-82 123 -180 177t-214 67q-31 3 -61 3q-85 0 -131 -33 q-33 -24 -32 -64q0 -16 5 -34zM232 1555q78 7 150 8h20q64 0 138 -5q86 -6 168 -27t166.5 -55t167.5 -91.5t156 -133.5q89 -92 153.5 -187.5t103.5 -179.5t66.5 -192.5t40.5 -197t27 -224.5q4 -32 31 -50q26 -17 58 -16h4q35 1 69 12q34 10 55 36q18 21 18 48q0 5 -1 10v14 q1 148 -19 282q-20 140 -69 284.5t-140.5 280.5t-221.5 252q-53 47 -104.5 86t-94.5 68t-89 52t-80.5 38t-76.5 26.5t-68.5 17.5t-66 10.5t-59.5 5.5t-57.5 2.5t-52.5 2.5q-27 2 -84 2q-63 0 -114 -7.5t-97.5 -26t-72 -55.5t-24.5 -90zM234 1196q35 2 69 2q184 0 343 -72 q189 -86 308 -259q59 -85 96 -153.5t61 -141.5t36.5 -136.5t26.5 -168.5q5 -32 32 -49q25 -16 57 -16h5q36 2 70 14q32 11 54 37q17 21 18 46q0 6 -1 12q-23 154 -47.5 257.5t-61.5 184t-74.5 134t-103.5 130.5q-118 137 -274.5 223.5t-304.5 95.5q-62 4 -88 4h-7 q-117 0 -174 -31q-44 -24 -44 -77q0 -17 4 -36z" />
<glyph unicode="S" vert-adv-y="180" d="M565 634.5q0 94.5 2.5 149.5t8.5 171q13 260 13 457q0 199 -4 350q0 3 -6 44q-1 8 0 29q1 15 6 21t13 2q9 -4 11 2q8 7 32 4q375 -6 389 -6q70 -3 142 -3q96 0 196 5q12 0 36 4q17 3 29 4q5 0 10 -1q17 -1 25 -26t0 -34q-5 -2 -2.5 -11.5t2.5 -11.5q-3 -25 -3 -56t1 -71 t1 -58q1 -244 8 -266q0 -5 4 -20t4 -17q-1 -3 -3 -11t-4 -13.5t-6 -6.5q-15 1 -40 22q-8 8 -13 27t0 24q4 20 4 49t-2 64.5t-2 49.5q0 19 -1 121.5t-4 157.5q-1 4 -1 10v8.5t-2 6t-6 5.5q-42 3 -122 3q-48 0 -109 -1q-122 -2 -171 -2h-25q-18 1 -69 3q-51 3 -77 3h-14 q-24 0 -56 -2q-44 -2 -81 -6q-7 -3 -18.5 -3.5t-18 -1.5t-7.5 -6q-5 -21 -3 -48q3 -51 3 -149q0 -79 -2 -189q-2 -251 -11 -427q-10 -159 -10 -312q0 -95 4 -188q24 -147 24 -268q0 -48 -4 -92q2 1 11.5 5t13 4.5t10.5 -1.5q40 -9 85 -11.5t104.5 -2.5t79.5 -1q201 3 347 15 q15 2 47 0t45 2q4 2 5.5 12t2.5 22.5t3 17.5q14 97 14 148v12q0 68 6 214q4 107 4 178q0 26 -1 47q-1 73 -6 78q-14 -5 -53.5 -4.5t-51.5 -8.5q-4 -15 0 -50.5t2 -48.5q-12 -15 -61 -29q-13 -3 -16 -0.5t-4 18.5q-2 15 -2 51.5t1 41.5q1 4 -1 5.5t-5 1.5h-6l-4 -1 q-5 -1 -26 -2t-30 -6q-4 -10 2 -38t9 -46t-8 -28q-26 -19 -58 -21q-5 0 -8 5q-10 43 -10.5 127.5t-6.5 118.5q-5 30 -2 43.5t18 17.5q33 8 42 5q8 -24 12 -75t7 -62q4 1 37.5 4t42.5 12q1 10 4 36.5t4 46t0 32.5q-1 6 4.5 12t11.5 7q2 0 16 3.5t17.5 3t13.5 -3.5 q3 -3 3.5 -9t-0.5 -18t-1 -18q0 -12 0.5 -46.5t0.5 -39.5q57 11 95 15q36 6 43 -1q4 -4 1.5 -11t1.5 -10q1 -1 4 -3.5t4 -3.5q6 -9 7.5 -24.5t0.5 -28t1 -25.5q1 -61 1 -101v-35q0 -46 -3 -137.5t-4 -135.5q2 -11 2 -31q0 -32 -5 -86q-3 -32 -3 -54q0 -41 9 -55q6 -32 3 -43 q-1 -7 -8 -20.5t-13 -11.5q-6 -1 -19 -9t-21 -9q-32 -3 -82 -3q-24 1 -54 1q-40 1 -72 1q-38 0 -63 -2q-47 -1 -141.5 -5t-161.5 -4t-128 8q-16 0 -38 -4q-20 -4 -34 -5q-2 1 -4 1q-16 0 -33 9q-8 11 -11.5 26.5t1.5 29.5q3 31 4 65q0 17 0.5 35.5t-0.5 37.5q-1 39 -2 63.5 t-3.5 70.5t-3.5 60q-7 75 -7 169.5zM700 1150q4 10 7 13t11.5 9.5t12.5 11.5q17 13 28.5 -0.5t16.5 -34.5q0 -1 8 -9t9 -8q14 -9 28.5 -13t21 -5t28 0.5t29.5 1.5q17 3 45.5 12t32.5 18q-6 7 -16.5 13.5t-18.5 10.5t-24 8.5t-22 6t-24 5.5l-18 3q-13 3 -41.5 7t-50.5 9 t-38 13q-14 8 -15 40q0 42 41 79t86 56q2 1 13.5 6t15 7t14.5 6.5t16.5 6t15 4t16.5 2.5t15 -0.5t15 -2.5q36 -13 47 -48q6 -17 6 -31q0 -21 -13 -36q-14 -13 -44 -15q-2 -1 -4.5 3.5t-3.5 12.5t-1 18q-2 17 -7.5 24.5t-18.5 13.5q-15 4 -20.5 4t-18.5 -4t-18 -5 q-86 -39 -86 -72q8 -13 26 -22t32 -12t41 -7.5l33 -5.5q15 -4 41 -9t42 -10.5t31 -15.5q10 -7 15 0q9 12 21 23t19.5 16.5t24.5 16.5t22 14q51 33 113 46q9 3 30.5 -0.5t22.5 -13.5q15 -33 30 -46q23 -19 38 -58q2 -8 2 -16q0 -23 -20 -43q-26 -26 -58 -39q-42 -21 -122 -21 h-14q-39 1 -71.5 9.5t-39.5 21.5l-2.5 5t-2 1t-3 -0.5t-4.5 -3.5q-37 -28 -103.5 -44.5t-114.5 -16.5q-33 3 -66 23.5t-37 46.5q-3 6 -3 12q0 4 1 8zM764 836q-1 4 -1 9t1 11q2 14 6 18q5 6 4 17q0 8 -6.5 45t-0.5 54q4 11 23 17t20 7q13 -3 28 9t24 12q28 6 49 6 q17 0 29 -4q27 -7 50 -23.5t32 -36.5q5 -14 5.5 -24t-5 -19.5t-10 -14.5t-16.5 -16q-56 -31 -87 -40q-4 -2 -24.5 -7.5t-23.5 -8.5q-7 -17 -3 -52.5t0 -53.5q-12 -9 -39.5 -19t-34.5 -3q-5 12 -7.5 25.5t-3 26t-0.5 27.5v29q-7 2 -9 9zM786 367v17q0 33 4 109v17.5v37.5v45 q-1 14 5.5 24.5t18.5 10.5q33 3 39 -6q4 -11 4 -31t3 -36q5 -29 8 -171q3 -14 4 -17q4 -8 -8 -18q-12 -9 -28 -10q-2 0 -13.5 -4.5t-17.5 -6.5q-3 -1 -5 0l-7 1q-5 5 -7 38zM855 904q1 -9 2.5 -10t5.5 1q23 3 55 16t37 28q-3 13 -30.5 28t-41.5 14q-2 0 -6.5 -0.5t-6 -1 t-4 -2.5t-4 -6t-2.5 -10q-6 -24 -6 -43q0 -7 1 -14zM1024 608q0 6 1.5 10.5t6 7t7.5 3.5t9.5 2t8.5 2q15 1 75 6.5t93 6.5q13 0 15.5 -3t-2.5 -13q-6 -17 -22 -34t-29 -10h-58q-4 -1 -17 -2t-19 -3q-6 -1 -7 -8q-1 -8 2.5 -36t5.5 -30q36 0 63 5q53 10 54 -8q13 -24 -12 -35 q-21 -9 -80 -15l-9 -1.5t-6 -3t-2 -7.5q1 -4 3 -9.5t2.5 -7t3 -4t5.5 -3t9 -0.5q6 -1 32 2t33 1q2 -1 13 -2t17.5 -2.5t13 -6.5t7.5 -13q2 -10 -22 -31q-13 -7 -25 -10q-13 -4 -21 -4h-10h-13q-16 0 -25 1h-10q-49 0 -62 18q-12 15 -17 55q-2 10 -2.5 16.5t-1.5 16.5t-3 22 q-7 49 -7 89q0 20 2 38zM1094 1174q1 -8 5.5 -14t12 -10t13.5 -6.5t18 -4t16 -1.5h17t14 -1h12q60 0 78 18q11 11 11 22q1 11 -11 31q-10 18 -19 21q-4 2 -15 6t-15 8q-6 7 -20.5 8.5t-19.5 4.5q-3 3 -7 3q-6 0 -15 -5q-74 -47 -75 -80z" />
<glyph unicode="T" vert-adv-y="180" d="M232 354q29 -71 171 -96q125 -22 499 -23h122q422 0 550 13q182 19 228 82q21 28 21 74q0 57 -33 141q-47 118 -233 440q-16 28 -50 87q-210 365 -305 496t-178 131t-178 -131t-305 -496q-204 -353 -258 -469q-59 -128 -59 -202q0 -27 8 -47zM377 422q-10 20 -11 48 q0 59 45 157q44 96 216 395q175 303 237 388q96 122 160 128q64 0 150 -114q63 -84 232 -377l1 -1v-1l1 -1l1 -1v-1l1 -1v-1l1 -1l1 -1v-1l1 -1v-1l1 -1v-1l1 -1l1 -1v-1l1 -1v-1l1 -1l1 -1v-1l1 -1v-1l1 -1q176 -304 219 -401q41 -92 41 -150q0 -31 -12 -52 q-34 -57 -184 -73q-106 -12 -461 -12q-363 0 -469 13q-146 17 -178 75z" />
<glyph unicode="U" vert-adv-y="180" d="M513 1014q3 -34 25 -54t55 -22q7 -1 15 -1q26 0 54 7q36 9 72.5 34.5t59.5 60.5q87 122 128 192q13 -174 13 -355.5t-13 -370.5q-15 -197 -21 -257q1 -50 77 -64q25 -5 49 -5q49 -1 99 19q74 30 72 85v24q0 43 -4 109q-6 88 -7 131q-5 171 -5 322q0 165 6 305l2 -4 q14 -22 62 -110q7 -33 41 -50q28 -14 62 -14h15q42 4 82 18.5t64 43.5q19 22 19 47q0 7 -2 15q-167 236 -272 394q-62 103 -81 165q-14 42 -60.5 65t-91.5 23q-72 -1 -126 -33q-48 -29 -48 -73q0 -6 1 -12q-4 -28 -11 -56.5t-19 -61.5t-19.5 -52.5t-25 -60t-22.5 -53.5 q-57 -126 -106.5 -195.5t-138.5 -155.5z" />
<glyph unicode="W" vert-adv-y="180" d="M224 465q231 -148 503 -148q175 0 328 55.5t262.5 148.5t188 213.5t117 252.5t38.5 264q0 29 -1 43q97 70 164 170q-91 -40 -189 -52q107 65 145 181q-92 -56 -209 -79q-97 103 -239 103q-136 0 -232.5 -96t-96.5 -232q0 -39 9 -75q-202 10 -378 100.5t-299 242.5 q-44 -75 -44 -165q0 -84 39.5 -156t106.5 -117q-82 3 -149 41v-4q0 -118 75 -208.5t189 -113.5q-38 -11 -87 -11q-32 0 -62 6q32 -99 116 -162.5t191 -65.5q-179 -141 -408 -141q-35 0 -78 5zM418 1355q83 -101 305.5 -184.5t383.5 -91.5q2 55 10 108.5t26.5 108.5t45 96.5 t68.5 68.5t93 28q9 0 26 2q16 3 26 3h8q6 0 14 -1q12 -1 19.5 -6.5t10.5 -16.5q14 -52 53 -92q4 -4 4.5 -7t-0.5 -11.5t-1 -18.5q1 -16 6 -25.5t6 -13.5q2 -19 2 -41q0 -37 -6 -83q-10 -74 -41 -166t-79.5 -180t-128.5 -170.5t-179 -133.5q-90 -47 -173 -77.5t-139 -42.5 q-54 -12 -100 -14q-19 -1 -34 -1q-21 1 -34 3q-22 4 -32 8q0 4 45 28t106 66.5t90 86.5q1 2 13.5 4t29.5 13t32 34q8 13 12.5 22.5t7.5 14.5t0.5 9.5t-2.5 5.5t-6.5 5t-7.5 5h-16q-54 0 -102 6q-56 6 -91 15t-61.5 18.5t-37.5 16.5l-12 7q72 18 116 33q5 2 32 2t60 18 q20 11 30 18.5t9.5 14t-2.5 8.5t-11 9q-11 2 -56.5 11t-78.5 16t-80 22t-77.5 30.5t-54.5 39.5t-27 52q12 -7 55 -7q24 0 57 2q12 1 30.5 -6t31.5 -9t44 9q57 25 60 29q4 6 -4 13q-17 11 -66 39t-80 49.5t-69 53.5t-58 69t-21 78z" />
<glyph unicode="X" vert-adv-y="180" d="M452 248q0 -31 10.5 -51.5t34.5 -19.5q9 -1 34 -1h8q20 0 35 2q18 2 32 11q182 8 425 8h100q32 -1 103 -3q70 -4 108 -4h30q35 0 90 1q62 1 94 23q31 22 31 54q0 33 -16 74q-1 10 -1 110v202q2 294 5 402q1 49 10 274.5t11 343.5v11q0 21 -6 37q-8 20 -26 25q-26 2 -71 2 q-57 0 -145 -3q-112 -4 -168 -4q-22 0 -36 1q-12 1 -60.5 2.5t-87.5 4t-60 7.5q-5 0 -18 -10t-32.5 -29.5t-37.5 -38t-44.5 -47.5t-41.5 -46t-39.5 -45t-29.5 -33q-10 -10 -36.5 -40t-44.5 -49t-45 -41t-50 -31q-21 -8 -38.5 -25t-20.5 -36q-6 -19 -6 -38q0 -17 5 -34 q1 -147 11 -429v-22q0 -64 -7 -261q-9 -241 -9 -254zM599 758q2 362 8 472q25 2 56 2q53 0 125 -6q77 -7 116 -7q19 0 29 2q52 8 74.5 24.5t17.5 53.5q-14 88 -14 243q0 36 1 77q25 1 66.5 2.5t44.5 1.5q48 2 101 2q152 0 214 -3q-6 -88 -8 -226q-1 -59 -1 -123 q0 -86 1 -181q2 -166 2 -213v-41q0 -66 1 -229q1 -98 1 -161q0 -94 -2 -108q-36 -2 -140 -6t-140 -6q-159 -5 -288 -5q-153 0 -264 7q-2 35 -2 159q0 104 1 269zM694 1357q33 32 63 63t70 75.5t58 63.5q1 -41 2 -118t1 -87q-33 1 -99 1.5t-95 1.5zM731 471q1 -8 7 -12t18 -5 q55 1 168.5 10t156.5 11q76 3 119 3q25 0 38 -1q10 0 18 1t13.5 7t9 8.5t6 13.5t3 13.5t2.5 17t2 15.5q1 5 2.5 17t2 17.5t0 14t-4 12.5t-10.5 7.5t-18 3.5q-54 -7 -162 -17q-98 -10 -191 -10q-52 0 -103 3q-15 1 -24.5 -1.5t-15.5 -11t-8 -14t-6 -22t-7 -24.5q-2 -5 -7 -19 l-6 -21q-2 -9 -3 -17zM801 749q0 -13 7 -19.5t21 -7.5q195 4 413 23q32 -1 48 21.5t20 56.5q1 9 1 17q0 51 -45 52q-84 -11 -128 -15.5t-124 -8.5q-38 -2 -70 -3q-36 0 -66 3q-17 1 -28.5 -3t-19.5 -15t-11.5 -21t-9.5 -31q-5 -16 -6.5 -26t-1.5 -23zM884 1016q4 -24 27 -34 q39 2 161 10q99 7 161 6h27q15 0 32 18q16 20 26 44q6 17 6 33q0 8 -2 16q-4 25 -25 36q-163 -26 -293 -26q-36 0 -69 2q-11 0 -25 -17q-14 -18 -22 -41q-6 -15 -5 -30q-1 -9 1 -17z" />
<glyph unicode="c" vert-adv-y="180" d="M374 495v-5q0 -22 14 -46q16 -27 41 -48.5t50 -40t43 -28.5l18 -10q687 336 1060 495q26 9 42.5 33.5t22.5 63.5t7.5 61.5t1.5 59.5v30q0 30 -1 43t-7.5 29.5t-22 23.5t-42 13.5t-70.5 11.5q-86 17 -215 68t-251.5 112t-233 119.5t-178.5 97.5l-68 39q-4 0 -11 -1.5 t-25 -13t-33 -30.5t-29.5 -58.5t-18.5 -92.5q-4 -44 -94 -926z" />
<glyph unicode="e" vert-adv-y="180" d="M625 755q-4 -11 -4 -20q0 -32 45 -44q21 -6 44 -6q41 0 87 19q72 28 80 77q7 35 19.5 66t39.5 69.5t45.5 61t66.5 78t72 84.5q68 81 175.5 169.5t229.5 161.5q-17 -58 -25 -88q-5 -20 -26.5 -75.5t-37.5 -113.5t-16 -113q0 -60 58 -89q30 -15 56 -15q18 0 35 7 q32 14 32 48q0 5 -1 11q0 71 24.5 140.5t64 143.5t51.5 105q11 30 24.5 63t18 44.5t9 28t8.5 35.5q-1 8 -20 40.5t-25 39.5q-15 16 -114 16q-43 0 -102 -3q-194 -10 -293 -35q-22 -4 -60 -11t-55 -10t-43.5 -9t-48 -13t-44.5 -17q-31 -13 -31 -37q0 -15 12 -34 q28 -45 88 -72q31 -14 56 -14q18 0 33 8q69 27 153 39q-186 -114 -385 -341q-132 -151 -185 -220t-111 -175z" />
<glyph unicode="f" vert-adv-y="180" d="M243 1227q41 -68 110.5 -129.5t184.5 -141.5t167 -122q-35 -125 -127 -359q-5 -20 -23 -72q-32 -92 -32 -125q0 -8 2 -12q6 -18 35 -5q42 34 125 106t149.5 125t124.5 90q8 -6 56.5 -43t61.5 -46.5t56.5 -42.5t62 -46.5t57 -41t62 -43.5t56 -37.5t61 -38.5t56.5 -33 q27 0 41 16t14 40t-6 48t-16 42q-30 61 -57 126t-42 106t-41.5 118.5t-39.5 114.5q180 115 426 297q33 1 50 48q7 22 7 38.5t-7 26.5q-4 6 -11 6q-56 -3 -133 -3q-171 0 -448 14q-12 41 -42 129.5t-42 131.5q-1 5 -14.5 57.5t-22 79.5t-23.5 69t-32 65t-35 29 q-40 -75 -72 -178t-62.5 -223t-51.5 -181q-172 -7 -318 -7t-267 7z" />
<glyph unicode="i" vert-adv-y="180" d="M729 1087q-1 -4 -1 -9q0 -29 37 -39q14 -4 28 -4q28 0 54 17q21 14 28 37q6 3 16 9q47 26 53.5 24t-0.5 -43q-1 -6 -2 -9q0 -3 -24.5 -116t-46.5 -231q-21 -118 -41 -250q-16 -107 -16 -184v-33q4 -86 38 -89q5 0 29.5 1t38.5 2t40 3.5t46 7t45 12t48 18.5t44 26 q67 47 109 121q38 66 38 94q0 3 -1 6q-6 27 -25.5 40.5t-42 12t-45.5 -16.5t-35 -41q-46 -82 -68 -82q-19 0 -19 66q0 22 2 51q3 34 10 90q6 63 21.5 168t40 250.5t31.5 193.5q37 52 37 90q0 10 -3 19q-9 30 -49 30q-16 0 -37 -5q-56 -13 -137 -48t-156 -88.5t-85 -100.5z M950 1580q2 -39 16 -93q12 -43 74 -56q32 -7 65 -7q31 0 62 6q64 12 92 36q39 32 51 64q8 23 8 54q0 13 -1 27q-8 75 -51 116q-42 40 -106 40h-3q-68 -2 -142 -43q-37 -24 -52 -64q-13 -35 -13 -69v-11z" />
<glyph unicode="l" vert-adv-y="180" d="M528 1151q4 -149 6.5 -377t2.5 -262q1 -40 16 -58.5t42 -19.5h14q22 0 51 2q372 24 682 24q55 0 109 -1q43 -4 47 21q1 9 1 29q1 63 -7 239q-9 209 -9 255v8q5 446 9 465l-456 -11q-44 0 -88 -0.5t-89 0.5q-89 1 -190 2.5t-107 1.5q-20 -1 -34 -7q-13 -6 -12 -20z" />
<glyph unicode="t" vert-adv-y="180" d="M603 654q-17 -42 -17 -72q0 -35 22 -53q42 -34 207 -39q58 -2 209 -2q267 0 338 12q89 15 99 64q1 7 1 15q0 54 -65 176q-28 54 -108 192q-62 107 -88 153t-69.5 101.5t-57 70.5t-50.5 15t-50.5 -15t-57 -70.5t-69.5 -101.5t-88 -153q-130 -225 -156 -293z" />
<glyph unicode="&#xe000;" horiz-adv-x="500" vert-adv-y="1000" d="M0 0z" />
</font>
</defs>
</svg>
